CyberLink Community Forum
where the experts meet
| Advanced Search >
Vimeo do not reconice 360 video edited and rendered in PowerDirector 17
Reply to this topic
[Post New]
We never had this problemin PowerDirector 16

You have to use a Spatial Media Metadata Injector

and injeckt meta data before it is playing in the 360 Viewer
[Thumb - Spatial Media Metadata Injector.jpg]
 Filename
Spatial Media Metadata Injector.jpg
[Disk]
 Description
 Filesize
3 Kbytes
 Downloaded:
7 time(s)

This message was edited 1 time. Last update was at Dec 06. 2018 09:10

Svendus Blog
Reply
ynotfish
Senior Contributor Private Message Location: N.S.W. Australia Joined: May 08, 2009 02:06 Messages: 9522 Offline
[Post New]
Hi Svendus -

That's odd. I just did a quick test in PDR17 using the Samsung Gear360 sample clip.

Produced to 3840x1920 in a 360 project - uploaded to Vimeo which immediately recognised it as 360, stating "360 detected" after upload was complete.

It plays correctly as a 360 file.



Cheers - Tony
Visit PDtoots. PowerDirector Tutorials, tips, free resources & more. Subscribe!
Full linked Tutorial Catalog
PDtoots happily supports fellow PowerDirector users!
Reply
[Post New]
Quote Hi Svendus -

That's odd. I just did a quick test in PDR17 using the Samsung Gear360 sample clip.

Produced to 3840x1920 in a 360 project - uploaded to Vimeo which immediately recognised it as 360, stating "360 detected" after upload was complete.

It plays correctly as a 360 file.



Cheers - Tony


Thanks Tony
we tryed two difrent 4K 50p h264 avc files and they both became flat 4K videos
Shot with an insta360ONEX Camera
Here are the media info from the last one

General
Complete name : D:\CyberLink\PowerDirector\17.0\2018 Hamra Ford T-A.mp4
Format : MPEG-4
Format profile : Sony PSP
Codec ID : MSNV (MSNV/isom/mp42)
File size : 3.32 GiB
Duration : 24 min 14 s
Overall bit rate : 19.6 Mb/s
Encoded date : UTC 2018-12-06 09:12:52
Tagged date : UTC 2018-12-06 09:12:52
Video
ID : 1
Format : AVC
Format/Info : Advanced Video Codec
Format profile : High@L5.2
Format settings : CABAC / 2 Ref Frames
Format settings, CABAC : Yes
Format settings, ReFrames : 2 frames
Format settings, GOP : M=3, N=13
Codec ID : avc1
Codec ID/Info : Advanced Video Coding
Duration : 24 min 14 s
Bit rate : 19.5 Mb/s
Width : 3 840 pixels
Height : 1 920 pixels
Display aspect ratio : 2.000
Frame rate mode : Constant
Frame rate : 50.000 FPS
Color space : YUV
Chroma subsampling : 4:2:0
Bit depth : 8 bits
Scan type : Progressive
Bits/(Pixel*Frame) : 0.053
Stream size : 3.30 GiB (99%)
Language : English
Encoded date : UTC 2018-12-06 09:12:52
Tagged date : UTC 2018-12-06 09:12:52
Codec configuration box : avcC
Audio
ID : 2
Format : AAC LC
Format/Info : Advanced Audio Codec Low Complexity
Codec ID : mp4a-40-2
Duration : 24 min 14 s
Source duration : 24 min 14 s
Bit rate mode : Constant
Bit rate : 128 kb/s
Channel(s) : 2 channels
Channel layout : L R
Sampling rate : 48.0 kHz
Frame rate : 46.875 FPS (1024 SPF)
Compression mode : Lossy
Stream size : 22.2 MiB (1%)
Source stream size : 22.2 MiB (1%)
Language : English
Encoded date : UTC 2018-12-06 09:12:52
Tagged date : UTC 2018-12-06 09:12:52
mdhd_Duration : 1454398

This message was edited 1 time. Last update was at Dec 07. 2018 03:04

Svendus Blog
Reply
ynotfish
Senior Contributor Private Message Location: N.S.W. Australia Joined: May 08, 2009 02:06 Messages: 9522 Offline
[Post New]
Hi again -

When you go to the Produce module, do the options look like this? Did you designate the project as 360?



I only ask because there are some properties of your produced file that aren't consistent with mine, aside from the obvious PAL/NTSC thing.

Cheers - Tony
Visit PDtoots. PowerDirector Tutorials, tips, free resources & more. Subscribe!
Full linked Tutorial Catalog
PDtoots happily supports fellow PowerDirector users!
Reply
[Post New]
Yes Tony
It is 360 custom settings MPEG-4 3840 x 1920/50p (20 Mbps)128kbps
may be it is because the video are 50 Frames p/sec
on YouTube it is recodniced

Svendus Blog
Reply
[Post New]


Vimeo Upload settings Vimeo sayes 360 Deteckted but the video do not play in the 360 Viewer
we have contackted VIMEO and sent a link to to this post Thank You

vimeo settings

This message was edited 3 times. Last update was at Dec 07. 2018 11:10

Svendus Blog
Reply
[Post New]

We got the Answer to the problem from Kris M (Vimeo Support)
Dec 7, 3:35 PM EST
Hi Svend,
Thanks for getting in touch, and sorry for the trouble with your video.
You will need to toggle the 360 setting on for your video. The option to mark your video as 360 can be found under the Distribution > Discovery page of your video settings.

well hidden under Distribution/ videofile links""

This message was edited 4 times. Last update was at Dec 09. 2018 07:44

Svendus Blog
Reply
[Post New]
Youtube Recodnice the video as 360 after a while when rendred in CyberLink PowerDirector17 (64-bit)
but not on Vimeo there you have to injeckt metadata if it shall run automaticaly

Svendus Blog
Reply
Reply to this topic
Powered by JForum 2.1.8 © JForum Team