CyberLink Community Forum
where the experts meet
| Advanced Search >
3424 Beta Patch I cant use Fast Rendering Video Technology anymore?
Reply to this topic
Matt.777 [Avatar]
Newbie Private Message Joined: Jun 05, 2018 08:43 Messages: 41 Offline
[Post New]
Hi all,
This patch 3424 Beta Patch DID work perfectly, it now does not, option is greyed out, I reinstalled the patch and still not allowing me to select the FAST VIdeo Rendering Technology, this made an amazing difference in my Video Rendering times.
Please see attachments, which includes DxDiag, I have no issues running PD16 With my Hardware etc either, plus this is a newly formatted Win10Pro install
Any ideas folks?

To add to this it definitely something in the profile thats not allowing me to use it, heres the profile
&
<Class>MPEG-4 AVC
<Name>2K @ 60FPS - 80000 BITRATE
<Description>2K @ 60FPS - 80000 BITRATE
<Output FileName>
<DescID>11920
<NameID>11983
<Group>2
<File Format Class>11
<Video Format Class>8
<Audio Format Class>10
<Stream Flag>3
<Field Order>0
<Attribute>10040083
<Video BitRate>80000000
<Min BitRate>60000000
<Max BitRate>80500000
<Video Quality>0
<Video Width>2560
<Video Height>1440
<Frame Rate>60.000000
<Profile Level>65380
<Pattern>IBBPBBPBBPBBP
<Pre Processing>0
<Resize>1
<Flip Video>0
<Speed Quality Indicator>6
<Interlacing>0
<Encoder Mode>0
<App Type>2
<Dynamic GOP>1
<Deblock>1
<EntryMode>1
<Encoder Type>32
<Audio Layer>2
<Audio Mode>2
<Audio BitRate>384000
<Audio Channels>2
<Audio SamplesPerSec>1
<Audio BitsPerSample>1
<Misc>0
<SamplesPerFrame>0
&&
It definitely worked before but not it is not, below is the media info from a previously rendered file using this profile:
General
Complete name : E:\FINAL VIDEO\VIDEO 13.mp4
Format : MPEG-4
Format profile : Sony PSP
Codec ID : MSNV
File size : 13.8 GiB
Duration : 25mn 0s
Overall bit rate : 79.2 Mbps
Encoded date : UTC 2018-10-30 14:50:53
Tagged date : UTC 2018-10-30 14:50:53
Video
ID : 1
Format : AVC
Format/Info : Advanced Video Codec
Format profile : High@L5.1
Format settings, CABAC : Yes
Format settings, ReFrames : 2 frames
Format settings, GOP : M=3, N=13
Codec ID : avc1
Codec ID/Info : Advanced Video Coding
Duration : 25mn 0s
Source duration : 25mn 0s
Bit rate : 78.8 Mbps
Width : 2 560 pixels
Height : 1 440 pixels
Display aspect ratio : 16:9
Frame rate mode : Constant
Frame rate : 60.000 fps
Color space : YUV
Chroma subsampling : 4:2:0
Bit depth : 8 bits
Scan type : Progressive
Bits/(Pixel*Frame) : 0.356
Stream size : 13.8 GiB (100%)
Source stream size : 13.8 GiB (100%)
Language : English
Encoded date : UTC 2018-10-30 14:50:53
Tagged date : UTC 2018-10-30 14:50:53
mdhd_Duration : 1500394
Audio
ID : 2
Format : AAC
Format/Info : Advanced Audio Codec
Format profile : LC
Codec ID : 40
Duration : 25mn 0s
Source duration : 25mn 0s
Bit rate mode : Constant
Bit rate : 384 Kbps
Channel(s) : 2 channels
Channel positions : Front: L R
Sampling rate : 48.0 KHz
Compression mode : Lossy
Stream size : 68.7 MiB (0%)
Source stream size : 68.7 MiB (0%)
Language : English
Encoded date : UTC 2018-10-30 14:50:53
Tagged date : UTC 2018-10-30 14:50:53
 Filename
DxDiag.txt
[Disk]
 Description
 Filesize
74 Kbytes
 Downloaded:
158 time(s)
[Thumb - no profile.jpg]
 Filename
no profile.jpg
[Disk]
 Description
 Filesize
487 Kbytes
 Downloaded:
0 time(s)
[Thumb - Untitled.jpg]
 Filename
Untitled.jpg
[Disk]
 Description
 Filesize
500 Kbytes
 Downloaded:
0 time(s)
Reply
Matt.777 [Avatar]
Newbie Private Message Joined: Jun 05, 2018 08:43 Messages: 41 Offline
[Post New]
Quote Hi all,
This patch 3424 Beta Patch DID work perfectly, it now does not, option is greyed out, I reinstalled the patch and still not allowing me to select the FAST VIdeo Rendering Technology, this made an amazing difference in my Video Rendering times.
Please see attachments, which includes DxDiag, I have no issues running PD16 With my Hardware etc either, plus this is a newly formatted Win10Pro install
Any ideas folks?

To add to this it definitely something in the profile thats not allowing me to use it, heres the profile
&
<Class>MPEG-4 AVC
<Name>2K @ 60FPS - 80000 BITRATE
<Description>2K @ 60FPS - 80000 BITRATE
<Output FileName>
<DescID>11920
<NameID>11983
<Group>2
<File Format Class>11
<Video Format Class>8
<Audio Format Class>10
<Stream Flag>3
<Field Order>0
<Attribute>10040083
<Video BitRate>80000000
<Min BitRate>60000000
<Max BitRate>80500000
<Video Quality>0
<Video Width>2560
<Video Height>1440
<Frame Rate>60.000000
<Profile Level>65380
<Pattern>IBBPBBPBBPBBP
<Pre Processing>0
<Resize>1
<Flip Video>0
<Speed Quality Indicator>6
<Interlacing>0
<Encoder Mode>0
<App Type>2
<Dynamic GOP>1
<Deblock>1
<EntryMode>1
<Encoder Type>32
<Audio Layer>2
<Audio Mode>2
<Audio BitRate>384000
<Audio Channels>2
<Audio SamplesPerSec>1
<Audio BitsPerSample>1
<Misc>0
<SamplesPerFrame>0
&&
It definitely worked before but not it is not, below is the media info from a previously rendered file using this profile:
General
Complete name : E:\FINAL VIDEO\VIDEO 13.mp4
Format : MPEG-4
Format profile : Sony PSP
Codec ID : MSNV
File size : 13.8 GiB
Duration : 25mn 0s
Overall bit rate : 79.2 Mbps
Encoded date : UTC 2018-10-30 14:50:53
Tagged date : UTC 2018-10-30 14:50:53
Video
ID : 1
Format : AVC
Format/Info : Advanced Video Codec
Format profile : High@L5.1
Format settings, CABAC : Yes
Format settings, ReFrames : 2 frames
Format settings, GOP : M=3, N=13
Codec ID : avc1
Codec ID/Info : Advanced Video Coding
Duration : 25mn 0s
Source duration : 25mn 0s
Bit rate : 78.8 Mbps
Width : 2 560 pixels
Height : 1 440 pixels
Display aspect ratio : 16:9
Frame rate mode : Constant
Frame rate : 60.000 fps
Color space : YUV
Chroma subsampling : 4:2:0
Bit depth : 8 bits
Scan type : Progressive
Bits/(Pixel*Frame) : 0.356
Stream size : 13.8 GiB (100%)
Source stream size : 13.8 GiB (100%)
Language : English
Encoded date : UTC 2018-10-30 14:50:53
Tagged date : UTC 2018-10-30 14:50:53
mdhd_Duration : 1500394
Audio
ID : 2
Format : AAC
Format/Info : Advanced Audio Codec
Format profile : LC
Codec ID : 40
Duration : 25mn 0s
Source duration : 25mn 0s
Bit rate mode : Constant
Bit rate : 384 Kbps
Channel(s) : 2 channels
Channel positions : Front: L R
Sampling rate : 48.0 KHz
Compression mode : Lossy
Stream size : 68.7 MiB (0%)
Source stream size : 68.7 MiB (0%)
Language : English
Encoded date : UTC 2018-10-30 14:50:53
Tagged date : UTC 2018-10-30 14:50:53



When I create a new custom profile and change to 60fps and 80000kbps when I select an mpeg4 4k profile it works, when I go into notepad and change the resolution to 2560 x 1440 is doesnt like it

and I cant use the FVRT

Any ideas how to get around this 2560 x 1440 is a 16:9 2K standard resolution, yet its not even available in the hard coded profiles
Reply
Matt.777 [Avatar]
Newbie Private Message Joined: Jun 05, 2018 08:43 Messages: 41 Offline
[Post New]
Anyone got any ideas?
Reply
JL_JL [Avatar]
Senior Contributor Private Message Location: Arizona, USA Joined: Oct 01, 2006 20:01 Messages: 5439 Offline
[Post New]
Quote Anyone got any ideas?

https://forum.cyberlink.com/forum/posts/list/47025.page#post_box_244166

Jeff
Reply
Matt.777 [Avatar]
Newbie Private Message Joined: Jun 05, 2018 08:43 Messages: 41 Offline
[Post New]



Thank you so so very much Jeff, my resolution was the factor here, thanks you again, made a copy of the post for future reference
Reply
Reply to this topic
Powered by JForum 2.1.8 © JForum Team