CyberLink Community Forum
where the experts meet
| Advanced Search >
Burning a BD stuck at 91%
Reply to this topic
RyanP [Avatar]
Newbie Private Message Joined: Sep 04, 2020 22:44 Messages: 2 Offline
[Post New]
Hello -

Similar to post below. Trying to burn an h264 to playable blu-ray on Power2Go 13. Went fairly quickly, then stopped at 91% and have been there for six hours. How long should this burn typically take? Should I abort and lose disc?

Also, h264 file is 15.7GB but Cyberlink is showing disc will be 24GB?

General
Complete name :
Format : MPEG-4
Format profile : QuickTime
Codec ID : qt 0000.02 (qt )
File size : 15.7 GiB
Duration : 2 h 13 min
Overall bit rate : 16.9 Mb/s
Writing application : Blackmagic Design DaVinci Resolve Studio
Video
ID : 1
Format : AVC
Format/Info : Advanced Video Codec
Format profile : High@L4
Format settings : CABAC / 4 Ref Frames
Format settings, CABAC : Yes
Format settings, Reference frames : 4 frames
Codec ID : avc1
Codec ID/Info : Advanced Video Coding
Duration : 2 h 13 min
Bit rate : 15.3 Mb/s
Width : 1 920 pixels
Height : 1 080 pixels
Display aspect ratio : 16:9
Frame rate mode : Constant
Frame rate : 24.000 FPS
Color space : YUV
Chroma subsampling : 4:2:0
Bit depth : 8 bits
Scan type : Progressive
Bits/(Pixel*Frame) : 0.308
Stream size : 14.3 GiB (91%)
Language : English
Color range : Limited
Color primaries : BT.709
Matrix coefficients : BT.709
Codec configuration box : avcC
Audio
ID : 2
Format : PCM
Format settings : Little / Signed
Codec ID : lpcm
Duration : 2 h 13 min
Bit rate mode : Constant
Bit rate : 1 536 kb/s
Channel(s) : 2 channels
Channel layout : L R
Sampling rate : 48.0 kHz
Bit depth : 16 bits
Stream size : 1.43 GiB (9%)
Language : English
Default : Yes
Alternate group : 1
Other
ID : 3
Type : Time code
Format : QuickTime TC
Duration : 2 h 13 min
Frame rate : 24.000 FPS
Time code of first frame : 00:59:59:00
Time code, striped : Yes
Language : English
Default : No

This message was edited 2 times. Last update was at Sep 04. 2020 23:43

Reply
tomasc [Avatar]
Senior Contributor Private Message Joined: Aug 25, 2011 12:33 Messages: 5455 Offline
[Post New]
The mediainfo shows an Apple QuickTime codec encoded file. The extension information is missing and may be a .mov file. It will need to be converted to a .m2ts file in the authoring step. If the file extension is a .mov then it may help to have that Apple QuickTime installed for the codec. It may help if you choose smartfit. See this tutorial for that information at 2:23 in the video: https://youtu.be/pNPu-xzRFNQ .

It may help to contact Cyberlink Support and give them as much info as you can. The more information given at the beginning, the better the chance of a successful resolution to this problem.

I have no idea how long it takes to author a disc with P2Go13. PowerDirector should take about 1.5 hours or less with the right pc.
Reply
RyanP [Avatar]
Newbie Private Message Joined: Sep 04, 2020 22:44 Messages: 2 Offline
[Post New]
Quote The mediainfo shows an Apple QuickTime codec encoded file. The extension information is missing and may be a .mov file. It will need to be converted to a .m2ts file in the authoring step. If the file extension is a .mov then it may help to have that Apple QuickTime installed for the codec. It may help if you choose smartfit. See this tutorial for that information at 2:23 in the video: https://youtu.be/pNPu-xzRFNQ .

It may help to contact Cyberlink Support and give them as much info as you can. The more information given at the beginning, the better the chance of a successful resolution to this problem.

I have no idea how long it takes to author a disc with P2Go13. PowerDirector should take about 1.5 hours or less with the right pc.


Thanks for your reply. I checked and my original file was .mov. I cancelled the burn after 9 hours of waiting and double-checked the disc preferences (for some reason it was set to 60i). After resetting to h264 and 1080 24fps everything is much improved. Burn finished in about thirty minutes. Disc plays fine on a consumer BD player.
Reply
Reply to this topic
Powered by JForum 2.1.8 © JForum Team