CyberLink Community Forum
where the experts meet
| Advanced Search >
Burning Blu-ray movie disc (wait for more than 30 hours)
Reply to this topic
Aik Tat [Avatar]
Newbie Private Message Joined: Aug 29, 2020 10:54 Messages: 3 Offline
[Post New]
Hi Guys,

Can anyone solve my problem.

I am creating a movie Blu-ray Disc from a video file, with menu, chapter and mp3 background music for menu.

the video duration is about 1 hr 50 mins.

but I have been waiting for 30 hours, the progress is still 0%, but my CPU keep busy with it.

should I continue to wait or stop the progress?

thanks.
Reply
tomasc [Avatar]
Senior Contributor Private Message Joined: Aug 25, 2011 12:33 Messages: 5455 Offline
[Post New]
I probably would have stopped it after the first hour if the progress is still 0%.You need to find out if that video file is playable in the Windows Media Player. You need to use MediaInfo freeware to view the properties of that video file in the text or tree view and export it to the desktop. Attach this text on your next reply so we can see what needs to be done.
Reply
Aik Tat [Avatar]
Newbie Private Message Joined: Aug 29, 2020 10:54 Messages: 3 Offline
[Post New]
Quote I probably would have stopped it after the first hour if the progress is still 0%.You need to find out if that video file is playable in the Windows Media Player. You need to use MediaInfo freeware to view the properties of that video file in the text or tree view and export it to the desktop. Attach this text on your next reply so we can see what needs to be done.


General
ID : 1 (0x1)
Complete name : C:\Users\teren\Documents\DVDFab11\Video\10DAYS\10DAYS.Title0.m2ts
Format : BDAV
Format/Info : Blu-ray Video
File size : 5.26 GiB
Duration : 1 h 50 min
Overall bit rate mode : Variable
Overall bit rate : 6 797 kb/s
Maximum Overall bit rate : 35.5 Mb/s
Video
ID : 4113 (0x1011)
Menu ID : 1 (0x1)
Format : AVC
Format/Info : Advanced Video Codec
Format profile : Main@L4
Format settings : CABAC / 4 Ref Frames
Format settings, CABAC : Yes
Format settings, Reference frames : 4 frames
Format settings, GOP : M=4, N=28
Codec ID : 27
Duration : 1 h 50 min
Bit rate mode : Variable
Bit rate : 4 983 kb/s
Maximum bit rate : 20.0 Mb/s
Width : 1 440 pixels
Height : 1 080 pixels
Display aspect ratio : 16:9
Frame rate : 29.970 (30000/1001) FPS
Standard : Component
Color space : YUV
Chroma subsampling : 4:2:0
Bit depth : 8 bits
Scan type : Interlaced
Scan type, store method : Separated fields
Scan order : Top Field First
Bits/(Pixel*Frame) : 0.107
Stream size : 3.86 GiB (73%)
Color range : Limited
Color primaries : BT.709
Transfer characteristics : BT.709
Matrix coefficients : BT.709
Audio
ID : 4352 (0x1100)
Menu ID : 1 (0x1)
Format : PCM
Format settings : Big / Signed
Muxing mode : Blu-ray
Codec ID : 128
Duration : 1 h 50 min
Bit rate mode : Constant
Bit rate : 1 536 kb/s
Channel(s) : 2 channels
Channel layout : L R
Sampling rate : 48.0 kHz
Bit depth : 16 bits
Delay relative to video : 92 ms
Stream size : 1.19 GiB (23%)
Language : Japanese
Reply
tomasc [Avatar]
Senior Contributor Private Message Joined: Aug 25, 2011 12:33 Messages: 5455 Offline
[Post New]
Thank you for the mediainfo on the .m2ts file. This title ripped from a BD has a wide variable bit rate from about 6.7 to 35.5 Mbps that exceeds that which can be used. Other users have re-encoded such files with PowerDirector and created BD Disc in the past. This capability is lacking in P2Go.
Reply
Aik Tat [Avatar]
Newbie Private Message Joined: Aug 29, 2020 10:54 Messages: 3 Offline
[Post New]
Quote Thank you for the mediainfo on the .m2ts file. This title ripped from a BD has a wide variable bit rate from about 6.7 to 35.5 Mbps that exceeds that which can be used. Other users have re-encoded such files with PowerDirector and created BD Disc in the past. This capability is lacking in P2Go.


May I know which bit rate of variable is acceptable for P2Go? I have powerdirector , how to re-encod this video to suit P2Go for burning into a Blu-Ray movie disc with Menu?
Reply
Reply to this topic
Powered by JForum 2.1.8 © JForum Team